Torrent Search | Torrent Meta Search | Widgets

Fuck Team Five Gianna Michaels Britney Amber Sara Jay

       
543.51 Mb
found 2 years ago
▲ seeders: 10 ▼ leechers:3
your vote:
real:
fake:
Direct Download
THANK YOU
download torrent
  Direct Downloadsponsored

Fuck Team Five Gianna Michaels Britney Amber Sara Jay torrent

Information about the torrent Fuck Team Five Gianna Michaels Britney Amber Sara Jay. Seeders, leechers and torrent status is updated everyday.

If you want to download the adult torrent Fuck Team Five Gianna Michaels Britney Amber Sara Jay you will need a torrent client.

Torrent Metasearch.

Torrent verified by isohunt.com.

tracker
seeders
leechers
↓ torrent client compatible list

↑ hide torrent client compatible list

Help www.torrentproject.com to stay alive .
Add links of www.torrentproject.com in your favorite forum, blog, youtube, facebook, twitter etc.
reviews
140
torrent contents

Fuck Team Five - Gianna Michaels, Britney Amber, Sara Jay torrent

Fuck Team Five - Gianna Michaels, Britney Amber, Sara Jay
Fuck Team Five - Gianna Michaels, Britney Amber, Sara Jay.jpg256.2 Kb torrent search
Fuck Team Five - Gianna Michaels, Britney Amber, Sara Jay.wmv543.26 Mb torrent search
info.nfo269 bytes torrent search

Sample info:
Duration: 01:10:49.29, start: 0.000000, bitrate: 1072 kb/s
Stream #0.0(eng): Audio: wmav2, 44100 Hz, 2 channels, s16, 64 kb/s
Stream #0.1(eng): Video: wmv3 (Main), yuv420p, 640x480, 1003 kb/s, 29.97 tbr, 1k tbn, 1k tbc
screenshots
Fuck Team Five Gianna torrent screenshot A5441F0D220599A26FB3E632CD63F7E731614F69 Fuck Team Five Gianna  torrent screenshot a5441f0d220599a26fb3e632cd63f7e731614f69 torrent Fuck Team Five Gianna
Fuck Team Five - Gianna Michaels, Britney Amber, Sara Jay images are auto generated please report any inapropriate images
 

related search cloud

 britney  amber  sara  fuck  michaels  team  five  gianna  info

Torrent Anonymous Download