Torrent Search | Torrent Meta Search | Widgets

Fast & FuRious 6 (2013) FRENCH HQ READNFO TSRiP XviD KiNGOFBLURAY

1.03 Gb
found 1 year ago
▲ seeders: 135 ▼ leechers:2
your vote:
real:
fake:
Direct Download
THANK YOU
download torrent
  Direct Downloadsponsored

Fast & FuRious 6 (2013) FRENCH HQ READNFO TSRiP XviD KiNGOFBLURAY torrent

Information about the torrent Fast & FuRious 6 (2013) FRENCH HQ READNFO TSRiP XviD KiNGOFBLURAY. Seeders, leechers and torrent status is updated several times per day.

If you want to download the video torrent Fast & FuRious 6 (2013) FRENCH HQ READNFO TSRiP XviD KiNGOFBLURAY you will need a torrent client.

Torrent Metasearch.

tracker
seeders
leechers
↓ torrent client compatible list

↑ hide torrent client compatible list

Help www.torrentproject.com to stay alive .
Add links of www.torrentproject.com in your favorite forum, blog, youtube, facebook, twitter etc.
reviews
140
torrent contents

Fast & FuRious 6.2013.FRENCH.HQ.READNFO.TSRiP.XViD-KiNGOFBLURAY.avi torrent

Fast & FuRious 6.2013.FRENCH.HQ.READNFO.TSRiP.XViD-KiNGOFBLURAY.avi1.03 Gb torrent search

Sample info:
Duration: 02:00:49.20, start: 0.000000, bitrate: 1225 kb/s
Stream #0.0: Video: mpeg4 (Advanced Simple Profile), yuv420p, 720x400 [PAR 1:1 DAR 9:5], 23.98 tbr, 23.98 tbn, 23.98 tbc
Stream #0.1: Audio: mp3, 48000 Hz, stereo, s16, 128 kb/s
screenshots
Fast & FuRious 6 torrent screenshot 9C72FDD982EE2FAEC464A3817B930D14C33CA53F Fast & FuRious 6  torrent screenshot 9c72fdd982ee2faec464a3817b930d14c33ca53f torrent Fast & FuRious 6
Fast & FuRious 6.2013.FRENCH.HQ.READNFO.TSRiP.XViD-KiNGOFBLURAY.avi images are auto generated please report any inapropriate images
 

related search cloud

 xvid  kingofbluray  tsrip  readnfo  furious  french  fast