Torrent Search | Torrent Meta Search | Widgets

AmourAngels Ksenia Grass Valley 720p

       
442.98 Mb
found 2 years ago
▲ seeders: 1 ▼ leechers:0
your vote:
real:
fake:
Direct Download
THANK YOU
download torrent
  Direct Downloadsponsored

AmourAngels Ksenia Grass Valley 720p torrent

Information about the torrent AmourAngels Ksenia Grass Valley 720p. Seeders, leechers and torrent status is updated everyday.

If you want to download the hdrip torrent AmourAngels Ksenia Grass Valley 720p you will need a torrent client.

Torrent Metasearch.

Torrent verified by kat.ph.

tracker
seeders
leechers
↓ torrent client compatible list

↑ hide torrent client compatible list

Help www.torrentproject.com to stay alive .
Add links of www.torrentproject.com in your favorite forum, blog, youtube, facebook, twitter etc.
reviews
140
torrent contents

AmourAngels Ksenia Grass Valley 720p.wmv torrent

AmourAngels Ksenia Grass Valley 720p.wmv442.98 Mb torrent search

Sample info:
Duration: 00:14:57.39, start: 1.579000, bitrate: 4140 kb/s
Stream #0.0: Audio: wmapro, 44100 Hz, stereo, flt, 128 kb/s
Stream #0.1: Video: wmv3, yuv420p, 1280x720, 4000 kb/s, PAR 1:1 DAR 16:9, 29.97 tbr, 1k tbn, 1k tbc
screenshots
AmourAngels Ksenia Grass Valley torrent screenshot 6FA2DA5F17CA3BCF1194DCA946D60087A6EA5901 AmourAngels Ksenia Grass Valley  torrent screenshot 6fa2da5f17ca3bcf1194dca946d60087a6ea5901 torrent AmourAngels Ksenia Grass Valley
AmourAngels Ksenia Grass Valley 720p.wmv images are auto generated please report any inapropriate images
 

related search cloud

 valley  ksenia  amourangels