Torrent Search | Torrent Meta Search | Widgets

關西援交

13.2 Gb
found 2 years ago
▲ seeders: 1 ▼ leechers:2
your vote:
real:
fake:
Direct Download
THANK YOU
download torrent
  Direct Downloadsponsored

關西援交 torrent

Information about the torrent 關西援交. Seeders, leechers and torrent status is updated everyday.

If you want to download the video torrent 關西援交 you will need a torrent client.

Torrent Metasearch.

tracker
seeders
leechers
↓ torrent client compatible list

↑ hide torrent client compatible list

Help www.torrentproject.com to stay alive .
Add links of www.torrentproject.com in your favorite forum, blog, youtube, facebook, twitter etc.
reviews
140
torrent contents

[關西援交] torrent

[關西援交]
[關西援交] No.55 爆乳淫亂_中3_小雪之花火大會.avi1.72 Gb torrent search
[關西援交] No.34 高1 16才 理子 制服 處女喪失 (制服).avi1.43 Gb torrent search
[關西援交] No.72 高校3年生18才 由香里.avi1.06 Gb torrent search
[關西援交] No.16 15才 ゆか Part1.mpg944.56 Mb torrent search
[關西援交] No.164.avi826.79 Mb torrent search
[關西援交] No.45 11才(ちはるちゃん)-2.avi747.65 Mb torrent search
[關西援交] No.51 まき16才高1 157cm 48kg Cカ.avi736.94 Mb torrent search
[關西援交] No.67 高1 16才 h好きッ.avi708.69 Mb torrent search
[關西援交] No.69 16才 高2 奈央 W喪失.avi706.16 Mb torrent search
[關西援交] No.68 高1 15才 比呂美.avi662.75 Mb torrent search
[關西援交] No.93 13才(中1) 結花(私服).avi635.01 Mb torrent search
[關西援交] No.62 16才 智世 part2 (アナル).avi632.89 Mb torrent search
[關西援交] No.71 히로미 16살.avi626.09 Mb torrent search
[關西援交] No.52 中1 13才 リカ Part.1.avi563.97 Mb torrent search
[關西援交] No.83 小學5年生11才 美沙 處女喪失.avi472.95 Mb torrent search
[關西援交] No.50.avi425.39 Mb torrent search
[關西援交] No.40 中2 千鶴 處女喪.avi298.64 Mb torrent search
[關西援交] No.47 中2 14才 ゆき(160cm 51kg B88cm).wmv224.77 Mb torrent search

Sample info:
Duration: 00:56:03.82, start: 0.000000, bitrate: 4385 kb/s
Stream #0.0: Video: mpeg4, yuv420p, 720x544 [PAR 1:1 DAR 45:34], 29.97 fps, 29.97 tbr, 29.97 tbn, 30k tbc
Stream #0.1: Audio: adpcm_ms, 44100 Hz, 2 channels, s16, 352 kb/s
screenshots
關西援交 torrent screenshot 679970365F59577D320FC38FB29B5C87ED498D1B 關西援交 torrent screenshot 679970365f59577d320fc38fb29b5c87ed498d1b torrent 關西援交
[關西援交] images are auto generated please report any inapropriate images
 

related search cloud

 part