Torrent Search | Torrent Meta Search | Widgets

The Strangers (2012) DVDRip @ pinoy

840.33 Mb
found 12 months ago
▲ seeders: 2 ▼ leechers:1
your vote:
real:
fake:
Direct Download
THANK YOU
download torrent
  Direct Downloadsponsored

The Strangers (2012) DVDRip @ pinoy torrent

Information about the torrent The Strangers (2012) DVDRip @ pinoy. Seeders, leechers and torrent status is updated everyday.

If you want to download the dvdrip torrent The Strangers (2012) DVDRip @ pinoy you will need a torrent client.

Torrent Metasearch.

tracker
seeders
leechers
↓ torrent client compatible list

↑ hide torrent client compatible list

Help www.torrentproject.com to stay alive .
Add links of www.torrentproject.com in your favorite forum, blog, youtube, facebook, twitter etc.
reviews
140
torrent contents

The Strangers 2012 DVDRip @ pinoy-pirates.com torrent

The Strangers 2012 DVDRip @ pinoy-pirates.com
The Strangers 2012 DVDRip @ pinoy-pirates.com.avi840.32 Mb torrent search
torrent downloaded from pinoy-pirates.com.txt805 bytes torrent search
Torrent downloaded from AhaShare.com.txt59 bytes torrent search

Sample info:
Duration: 01:39:13.72, start: 0.000000, bitrate: 1183 kb/s
Stream #0.0: Video: h264 (High), yuv420p, 1280x720 [PAR 1:1 DAR 16:9], 25 fps, 25 tbr, 25 tbn, 50 tbc
Stream #0.1: Audio: mp3, 44100 Hz, stereo, s16, 192 kb/s
screenshots
The Strangers 2012 DVDRip torrent screenshot 629500C8156DB0439FCF945C362A49C3971C07BE The Strangers 2012 DVDRip  torrent screenshot 629500c8156db0439fcf945c362a49c3971c07be torrent The Strangers 2012 DVDRip
The Strangers 2012 DVDRip @ pinoy-pirates.com images are auto generated please report any inapropriate images
 

related search cloud

 pinoy  pirates  downloaded  dvdrip  torrent  strangers  ahashare

Torrent Anonymous Download