Torrent Search | Torrent Meta Search | Widgets

Alice in Wonderland A XXX Parody

       
436.75 Mb
found 2 years ago
▲ seeders: 21 ▼ leechers:1
your vote:
real:
fake:
Direct Download
THANK YOU
download torrent
  Direct Downloadsponsored

Alice in Wonderland A XXX Parody torrent

Information about the torrent Alice in Wonderland A XXX Parody. Seeders, leechers and torrent status is updated several times per day.

If you want to download the adult torrent Alice in Wonderland A XXX Parody you will need a torrent client.

Torrent Metasearch.

Torrent verified by kat.ph.

tracker
seeders
leechers
↓ torrent client compatible list

↑ hide torrent client compatible list

Help www.torrentproject.com to stay alive .
Add links of www.torrentproject.com in your favorite forum, blog, youtube, facebook, twitter etc.
reviews
140
torrent contents

Alice in Wonderland - A XXX Parody.mp4 torrent

Alice in Wonderland - A XXX Parody.mp4436.75 Mb torrent search

Sample info:
Duration: 00:57:36.32, start: 0.000000, bitrate: 1059 kb/s
Stream #0.0	: Video: h264, yuv420p, 704x396 [PAR 1:1 DAR 16:9], 999 kb/s, 29.97 fps, 29.97 tbr, 30k tbn, 59.94 tbc
creation_time	: 2012-03-15 06:23:20
Stream #0.1	: Audio: aac, 48000 Hz, 5.1, s16, 56 kb/s
creation_time	: 2012-03-15 06:23:25
screenshots
Alice in Wonderland A torrent screenshot 60FAAE19455D7F36F03C9A06B8F288A145B4121E Alice in Wonderland A  torrent screenshot 60faae19455d7f36f03c9a06b8f288a145b4121e torrent Alice in Wonderland A
Alice in Wonderland - A XXX Parody.mp4 images are auto generated please report any inapropriate images
 

related search cloud

 parody  wonderland  alice

Torrent Anonymous Download