Torrent Search | Torrent Meta Search | Widgets

별에서 온 그대 E10 140116 HDTV H264 720p HANrel

1.2 Gb
found 7 months ago
▲ seeders: 29 ▼ leechers:1
your vote:
real:
fake:
Direct Download
THANK YOU
download torrent
  Direct Downloadsponsored

별에서 온 그대 E10 140116 HDTV H264 720p HANrel torrent

Information about the torrent 별에서 온 그대 E10 140116 HDTV H264 720p HANrel. Seeders, leechers and torrent status is updated everyday.

If you want to download the tv torrent 별에서 온 그대 E10 140116 HDTV H264 720p HANrel you will need a torrent client.

Torrent Metasearch.

tracker
seeders
leechers
↓ torrent client compatible list

↑ hide torrent client compatible list

Help www.torrentproject.com to stay alive .
Add links of www.torrentproject.com in your favorite forum, blog, youtube, facebook, twitter etc.
reviews
140
torrent contents

별에서 온 그대.E10.140116.HDTV.H264.720p-HANrel.avi torrent

별에서 온 그대.E10.140116.HDTV.H264.720p-HANrel.avi1.2 Gb torrent search

Sample info:
Duration: 00:59:03.52, start: 0.000000, bitrate: 2901 kb/s
Stream #0:0: Video: h264 (High) (H264 / 0x34363248), yuv420p, 1280x720 [SAR 1:1 DAR 16:9], 29.97 fps, 29.97 tbr, 29.97 tbn, 59.94 tbc
Stream #0:1: Audio: mp3 (U[0][0][0] / 0x0055), 48000 Hz, stereo, s16, 192 kb/s
screenshots
별에서 온 그대 E10 torrent screenshot 59CB15BB626C818608D563CEA59E493968E6A909 별에서 온 그대 E10  torrent screenshot 59cb15bb626c818608d563cea59e493968e6a909 torrent 별에서 온 그대 E10
별에서 온 그대.E10.140116.HDTV.H264.720p-HANrel.avi images are auto generated please report any inapropriate images
 

related search cloud

 hanrel  hdtv