Torrent Search | Torrent Meta Search | Widgets

nami satsuki 五月なみ

1.55 Gb
found 1 year ago
▲ seeders: 1 ▼ leechers:0
your vote:
real:
fake:
Direct Download
THANK YOU
download torrent
  Direct Downloadsponsored

nami satsuki 五月なみ torrent

Information about the torrent nami satsuki 五月なみ. Seeders, leechers and torrent status is updated everyday.

If you want to download the video torrent nami satsuki 五月なみ you will need a torrent client.

Torrent Metasearch.

tracker
seeders
leechers
↓ torrent client compatible list

↑ hide torrent client compatible list

Help www.torrentproject.com to stay alive .
Add links of www.torrentproject.com in your favorite forum, blog, youtube, facebook, twitter etc.
reviews
anonymous 15 Mar 2014, 04:03:32
ロリータ
140
torrent contents

nami satsuki 五月なみ torrent

nami satsuki 五月なみ
【ロリ】【無修正】 清岡ビデオ 五月なみ 14歳 TS-22「乙女の色」 完全版(38m31s).mpeg702.17 Mb torrent search
(ロリ) 東京スタジオ 五月なみ 14歳「乙女の詩」 絶対おすすめのマ○コ美巨乳まるだし女子中学生(無修正).mpg586.05 Mb torrent search
[ロリ動画]力武ビデオ【ときめきの詩 五月なみ 14才】.mpg295.02 Mb torrent search
nami.jpg1.19 Mb torrent search

Sample info:
Duration: 00:38:31.81, start: 0.891122, bitrate: 2547 kb/s
Stream #0.0[0x1e0]: Video: mpeg2video (Main), yuv420p, 320x240 [PAR 1:1 DAR 4:3], 2355 kb/s, 29.97 fps, 29.97 tbr, 90k tbn, 59.94 tbc
Stream #0.1[0x1c0]: Audio: mp2, 44100 Hz, stereo, s16, 160 kb/s
screenshots
nami satsuki 五月なみ torrent screenshot 58E472BFEE25AA81DBE24702FF99AFB8E3DAE3F9 nami satsuki 五月なみ torrent screenshot 58e472bfee25aa81dbe24702ff99afb8e3dae3f9 torrent nami satsuki 五月なみ
nami satsuki 五月なみ images are auto generated please report any inapropriate images
 

related search cloud

 nami  satsuki

Torrent Anonymous Download