Torrent Search | Torrent Meta Search | Widgets

Ls Dreams 02 First Try Movies 07 12

636.51 Mb
found 3 years ago
▲ seeders: 5 ▼ leechers:6
your vote:
real:
fake:
Direct Download
THANK YOU
download torrent
  Direct Downloadsponsored

Ls Dreams 02 First Try Movies 07 12 torrent

Information about the torrent Ls Dreams 02 First Try Movies 07 12. Seeders, leechers and torrent status is updated several times per day.

If you want to download the video torrent Ls Dreams 02 First Try Movies 07 12 you will need a torrent client.

Torrent Metasearch.

tracker
seeders
leechers
↓ torrent client compatible list

↑ hide torrent client compatible list

Help www.torrentproject.com to stay alive .
Add links of www.torrentproject.com in your favorite forum, blog, youtube, facebook, twitter etc.
reviews
140
torrent contents

Ls-Dreams 02 - First Try - Movies 07-12 torrent

Ls-Dreams 02 - First Try - Movies 07-12
1.jpg568.04 Kb torrent search
lsd02-04-01.mpg244.09 Mb torrent search
lsd02-05-01.mpg86.13 Mb torrent search
lsd02-05-02.mpg64.41 Mb torrent search
lsd02-06-01.mpg77.15 Mb torrent search
lsd02-06-02.mpg69.51 Mb torrent search
lsd02-07-01.mpg94.67 Mb torrent search

Sample info:
Duration: 00:21:46.36, start: 0.000000, bitrate: 1567 kb/s
Stream #0.0: Video: mpeg4, yuv420p, 704x576 [PAR 1:1 DAR 11:9], 25 fps, 25 tbr, 25 tbn, 30k tbc
Stream #0.1: Audio: mp3, 24000 Hz, stereo, s16, 56 kb/s
screenshots
Ls Dreams 02 First torrent screenshot 585657191F1D519506FE9B8537A9EFC73716BBF2 Ls Dreams 02 First  torrent screenshot 585657191f1d519506fe9b8537a9efc73716bbf2 torrent Ls Dreams 02 First
Ls-Dreams 02 - First Try - Movies 07-12 images are auto generated please report any inapropriate images
 

related search cloud

 movies  first  dreams

Torrent Anonymous Download