Torrent Search | Torrent Meta Search | Widgets

18 Year Old Ladyboys

       
2.26 Gb
found 2 years ago
▲ seeders: 2 ▼ leechers:3
your vote:
real:
fake:
Direct Download
THANK YOU
download torrent
  Direct Downloadsponsored

18 Year Old Ladyboys torrent

Information about the torrent 18 Year Old Ladyboys. Seeders, leechers and torrent status is updated several times per day.

If you want to download the video torrent 18 Year Old Ladyboys you will need a torrent client.

Torrent Metasearch.

Torrent verified by kat.ph.

tracker
seeders
leechers
↓ torrent client compatible list

↑ hide torrent client compatible list

Help www.torrentproject.com to stay alive .
Add links of www.torrentproject.com in your favorite forum, blog, youtube, facebook, twitter etc.
reviews
140
torrent contents

18 Year Old Ladyboys torrent

18 Year Old Ladyboys
18yolb_kim.wmv200.21 Mb torrent search
18yolb_kathy.wmv239.4 Mb torrent search
18yolb_kim2.wmv216.02 Mb torrent search
18yolb_lin.wmv203.66 Mb torrent search
18yolb_tay.wmv340.07 Mb torrent search
18yolb_sam.wmv258.62 Mb torrent search
18yolb_jessica.wmv186.96 Mb torrent search
18yolb_jakie.wmv209.58 Mb torrent search
18 Year Old Ladyboys_003.jpg40.58 Kb torrent search
18 Year Old Ladyboys_002.jpg48.88 Kb torrent search
18 Year Old Ladyboys_004.jpg49.58 Kb torrent search
18 Year Old Ladyboys_005.jpg45.23 Kb torrent search
18yolb_faith.wmv459.66 Mb torrent search
18 Year Old Ladyboys_001.jpg34.71 Kb torrent search

Sample info:
Duration: 00:31:00.15, start: 5.000000, bitrate: 2072 kb/s
Stream #0.0(eng): Audio: wmav2, 44100 Hz, 2 channels, s16, 64 kb/s
Stream #0.1(eng): Video: wmv3, yuv420p, 640x360, 2000 kb/s, 25 tbr, 1k tbn, 1k tbc
screenshots
18 Year Old Ladyboys torrent screenshot 3FF926C35079CD10E4E0FA3F85BE6D1DA9812539 18 Year Old Ladyboys torrent screenshot 3ff926c35079cd10e4e0fa3f85be6d1da9812539 torrent 18 Year Old Ladyboys
18 Year Old Ladyboys images are auto generated please report any inapropriate images
 

related search cloud

 yolb  year  ladyboys  faith  jakie  kathy  jeica

Torrent Anonymous Download