Torrent Search | Torrent Meta Search | Widgets

Big Booty Beatdown PORNO EBONY

       
1.37 Gb
found 3 years ago
▲ seeders: 33 ▼ leechers:12
your vote:
real:
fake:
Direct Download
THANK YOU
download torrent
  Direct Downloadsponsored

Big Booty Beatdown PORNO EBONY torrent

Information about the torrent Big Booty Beatdown PORNO EBONY. Seeders, leechers and torrent status is updated everyday.

If you want to download the video torrent Big Booty Beatdown PORNO EBONY you will need a torrent client.

Torrent Metasearch.

.

tracker
seeders
leechers
↓ torrent client compatible list

↑ hide torrent client compatible list

Help www.torrentproject.com to stay alive .
Add links of www.torrentproject.com in your favorite forum, blog, youtube, facebook, twitter etc.
reviews
140
torrent contents

Big Booty Beatdown [PORNO][EBONY]] torrent

Big Booty Beatdown [PORNO][EBONY][www.lokotorrents.com]
Big Booty Beatdown [CD1][PORNO][EBONY][www.lokotorrents.com].avi699.1 Mb torrent search
Big Booty Beatdown [CD2][PORNO][EBONY][www.lokotorrents.com].avi698.8 Mb torrent search

Sample info:
Duration: 01:07:09.72, start: 0.000000, bitrate: 1455 kb/s
Stream #0.0: Video: mpeg4, yuv420p, 576x432 [PAR 1:1 DAR 4:3], 29.97 tbr, 29.97 tbn, 29.98 tbc
Stream #0.1: Audio: mp3, 48000 Hz, 2 channels, s16, 118 kb/s
screenshots
Big Booty Beatdown PORNO torrent screenshot 394FA175A7753B0E4B8FA7B4BD136A2C43A0D68C Big Booty Beatdown PORNO  torrent screenshot 394fa175a7753b0e4b8fa7b4bd136a2c43a0d68c torrent Big Booty Beatdown PORNO
Big Booty Beatdown [PORNO][EBONY]] images are auto generated please report any inapropriate images
 

related search cloud

 lokotorrents  ebony  porno  beatdown  booty