Torrent Search | Torrent Meta Search | Widgets

DareDorm Study Group 13 12 (2013) NEW RELEASE flv

1.23 Gb
found 8 months ago
▲ seeders: 2 ▼ leechers:1
your vote:
real:
fake:
Direct Download
THANK YOU
download torrent
  Direct Downloadsponsored

DareDorm Study Group 13 12 (2013) NEW RELEASE flv torrent

Information about the torrent DareDorm Study Group 13 12 (2013) NEW RELEASE flv. Seeders, leechers and torrent status is updated several times per day.

If you want to download the video torrent DareDorm Study Group 13 12 (2013) NEW RELEASE flv you will need a torrent client.

Torrent Metasearch.

tracker
seeders
leechers
↓ torrent client compatible list

↑ hide torrent client compatible list

Help www.torrentproject.com to stay alive .
Add links of www.torrentproject.com in your favorite forum, blog, youtube, facebook, twitter etc.
reviews
140
torrent contents

[DareDorm] Study Group (13.12.2013) [NEW RELEASE].flv torrent

[DareDorm] Study Group (13.12.2013) [NEW RELEASE].flv1.23 Gb torrent search

Sample info:
Duration: 00:49:45.96, start: 0.000000, bitrate: 3543 kb/s
Stream #0:0: Video: h264 (Main), yuv420p, 1024x576 [SAR 1:1 DAR 16:9], 30 tbr, 1k tbn, 60 tbc
Stream #0:1: Audio: aac, 32000 Hz, mono, s16
screenshots
DareDorm Study Group 13 torrent screenshot 19DF3D40CC35472936467F2AA0CE28C1F3DA94AC DareDorm Study Group 13  torrent screenshot 19df3d40cc35472936467f2aa0ce28c1f3da94ac torrent DareDorm Study Group 13
[DareDorm] Study Group (13.12.2013) [NEW RELEASE].flv images are auto generated please report any inapropriate images
 

related search cloud

 release  group  study  daredorm