Torrent Search | Torrent Meta Search | Widgets

宇都宮援助白書

21.22 Gb
found 2 years ago
▲ seeders: 0 ▼ leechers:2
your vote:
real:
fake:
Direct Download
THANK YOU
download torrent
  Direct Downloadsponsored

宇都宮援助白書 torrent

Information about the torrent 宇都宮援助白書. Seeders, leechers and torrent status is updated several times per day.

If you want to download the video torrent 宇都宮援助白書 you will need a torrent client.

Torrent Metasearch.

tracker
seeders
leechers
↓ torrent client compatible list

↑ hide torrent client compatible list

Help www.torrentproject.com to stay alive .
Add links of www.torrentproject.com in your favorite forum, blog, youtube, facebook, twitter etc.
reviews
anonymous 12 Feb 2014, 09:02:47
goo
140
torrent contents

宇都宮援助白書 torrent

宇都宮援助白書
27.avi426.92 Mb torrent search
37.avi478.71 Mb torrent search
宇都宮さぽーと白書_01_ともえ.mpg295.75 Mb torrent search
宇都宮さぽーと白書_02_えみ.mpg435.25 Mb torrent search
宇都宮さぽーと白書_03_あやの.mpg539.04 Mb torrent search
宇都宮さぽーと白書_04_ゆりえ.mpg431.32 Mb torrent search
宇都宮さぽーと白書_05_めぐみ.avi736.88 Mb torrent search
宇都宮さぽーと白書_06_ゆか.mpg141.13 Mb torrent search
宇都宮さぽーと白書_08_ようこ.avi236 Mb torrent search
宇都宮さぽーと白書_09_まいこ.avi283.26 Mb torrent search
宇都宮さぽーと白書_10_夕実.avi219.62 Mb torrent search
宇都宮さぽーと白書_11_玲子.avi143.3 Mb torrent search
宇都宮さぽーと白書_12_昧(まい).avi283.61 Mb torrent search
宇都宮さぽーと白書_13_あい.avi286.23 Mb torrent search
宇都宮さぽーと白書_14_ルミ&愛.avi204.55 Mb torrent search
宇都宮さぽーと白書_15_千尋後編.avi270.87 Mb torrent search
宇都宮さぽーと白書_16_千尋前編.avi247.49 Mb torrent search
宇都宮さぽーと白書_17_ひろみ.avi235.38 Mb torrent search
宇都宮さぽーと白書_19_みずほ.avi353.4 Mb torrent search
宇都宮さぽーと白書_20_さやか.avi190.75 Mb torrent search
宇都宮さぽーと白書_21_ゆうな.avi499.63 Mb torrent search
宇都宮さぽーと白書_22_ななこ.avi290.72 Mb torrent search
宇都宮さぽーと白書_23_さっち.avi290.26 Mb torrent search
宇都宮さぽーと白書_24_ゆか.avi190.74 Mb torrent search
宇都宮さぽーと白書_25_りか.avi316.48 Mb torrent search
宇都宮さぽーと白書_26_絵美.avi190.76 Mb torrent search
宇都宮さぽーと白書_27_あや.avi476.84 Mb torrent search
宇都宮さぽーと白書_28_りょうこ.avi238.42 Mb torrent search
宇都宮さぽーと白書_29_みえ.avi346.24 Mb torrent search
宇都宮さぽーと白書_30_けいこ.avi631.02 Mb torrent search
宇都宮さぽーと白書_31_かっち.mpg538.22 Mb torrent search
宇都宮さぽーと白書_32_みお.avi358.77 Mb torrent search
宇都宮さぽーと白書_33_さやか.avi552.45 Mb torrent search
宇都宮さぽーと白書_34_まり.avi627.26 Mb torrent search
宇都宮さぽーと白書_35_ゆか_Part1.avi627.17 Mb torrent search
宇都宮さぽーと白書_36_あみ.avi627.27 Mb torrent search
宇都宮さぽーと白書_38_りほ.avi407.39 Mb torrent search
宇都宮さぽーと白書_39 あさみ.avi627.28 Mb torrent search
宇都宮さぽーと白書_40_のあ.avi629.83 Mb torrent search
宇都宮さぽーと白書_41_もえ.avi706.53 Mb torrent search
宇都宮さぽーと白書_42_まいこ.avi636.33 Mb torrent search

Sample info:
Duration: 00:53:00.14, start: 0.000000, bitrate: 1996 kb/s
Stream #0.0: Video: mpeg4, yuv420p, 640x480 [PAR 1:1 DAR 4:3], 29.97 fps, 29.97 tbr, 29.97 tbn, 2 tbc
Stream #0.1: Audio: pcm_s16le, 48000 Hz, 2 channels, s16, 1536 kb/s
screenshots
宇都宮援助白書 torrent screenshot 17DE98D2E796ABDD545F39542548D70F6A579F42 宇都宮援助白書 torrent screenshot 17de98d2e796abdd545f39542548d70f6a579f42 torrent 宇都宮援助白書
宇都宮援助白書 images are auto generated please report any inapropriate images
 

related search cloud

 part

Torrent Anonymous Download