Torrent Search | Torrent Meta Search | Widgets

Ashlynn Brooke from On the Road to South Beach

334.01 Mb
found 2 years ago
▲ seeders: 2 ▼ leechers:3
your vote:
real:
fake:
Direct Download
THANK YOU
download torrent
  Direct Downloadsponsored

Ashlynn Brooke from On the Road to South Beach torrent

Information about the torrent Ashlynn Brooke from On the Road to South Beach. Seeders, leechers and torrent status is updated everyday.

If you want to download the video torrent Ashlynn Brooke from On the Road to South Beach you will need a torrent client.

Torrent Metasearch.

tracker
seeders
leechers
↓ torrent client compatible list

↑ hide torrent client compatible list

Help www.torrentproject.com to stay alive .
Add links of www.torrentproject.com in your favorite forum, blog, youtube, facebook, twitter etc.
reviews
140
torrent contents

Ashlynn Brooke from On the Road to South Beach.avi torrent

Ashlynn Brooke from On the Road to South Beach.avi334.01 Mb torrent search

Sample info:
Duration: 00:27:47.12, start: 0.000000, bitrate: 1680 kb/s
Stream #0.0: Video: h264, yuv420p, 640x480 [PAR 1:1 DAR 4:3], 25 fps, 25 tbr, 25 tbn, 48 tbc
Stream #0.1: Audio: mp3, 44100 Hz, 2 channels, s16, 128 kb/s
screenshots
Ashlynn Brooke from On torrent screenshot 0CE7BC9503C815BF5CE0DE6F62C8188201EA26E6 Ashlynn Brooke from On  torrent screenshot 0ce7bc9503c815bf5ce0de6f62c8188201ea26e6 torrent Ashlynn Brooke from On
Ashlynn Brooke from On the Road to South Beach.avi images are auto generated please report any inapropriate images
 

related search cloud

 beach  south  road  brooke  ashlynn

Torrent Anonymous Download